#TITLE:burningheat;
#SUBTITLE:;
#ARTIST:Unknown artist;
#TITLETRANSLIT:;
#SUBTITLETRANSLIT:;
#ARTISTTRANSLIT:;
#CREDIT:;
#BANNER:;
#BACKGROUND:;
#LYRICSPATH:;
#CDTITLE:;
#MUSIC:burningheat.mp3;
#OFFSET:0.000;
#SAMPLESTART:53.125;
#SAMPLELENGTH:12.000;
#SELECTABLE:YES;
#BPMS:0.000=60.000,6.000=120.000,17.000=60.000,17.250=120.000,170.250=60.000,170.750=120.000,313.250=60.000;
#STOPS:;
#BGCHANGES:;
// cache tags:
#FIRSTBEAT:0.000;
#LASTBEAT:172.500;
#SONGFILENAME:Songs/nhac/burningheat/burningheat.sm;
#HASMUSIC:1;
#HASBANNER:0;
#MUSICLENGTH:94.071;
// end cache tags

//---------------dance-single - ----------------
#NOTES:
     dance-single:
     :
     Challenge:
     1:
     0.969,0.986,0.606,1.000,1.000,446.000,57.000,108.000,0.000,40.000:
2002
0000
3003
0220
,
0000
0000
2002
0000
0330
0000
3003
0000
1000
0010
0000
0010
0100
0000
0010
0000
,
0000
0100
0001
0000
1000
0000
0000
0100
0010
0000
0100
0000
0000
0001
1000
0000
,
0100
0000
0000
0010
1000
0000
0001
0000
0000
0100
0010
0000
1000
0000
0220
0000
,
0000
0000
0000
0000
0000
0000
0000
0000
0000
0000
0000
0000
0000
0000
0000
0000
0000
0000
0000
0000
0000
0000
0000
0000
0000
0000
0000
0000
0000
0000
0000
0000
0000
0000
0000
0000
0000
0000
0000
0000
0000
0000
0000
0000
0000
0000
0000
0000
1001
0000
0000
0000
0000
0000
0000
0000
0000
0000
0000
0000
0330
0000
0000
0000
0000
0000
0000
0000
0000
0000
0000
0000
0000
0000
0000
0000
0000
0000
0000
0000
0000
0000
0000
0000
0000
0000
0000
0000
0000
0000
0000
0000
0000
0000
0000
0000
0000
0000
0000
0000
0000
0000
0000
0000
0000
0000
0000
0000
0000
0000
0000
0000
0000
0000
0000
0000
0000
0000
0000
0000
0000
0000
0000
0000
0000
0000
0000
0000
0000
0000
0000
0000
1000
0000
0000
0000
0000
0000
0100
0000
0000
0000
0000
0000
0000
0000
0000
0000
0000
0000
1000
0000
0000
0000
0000
0000
0000
0000
0000
0000
0000
0000
0000
0000
0010
0000
0000
0000
0001
0000
0000
0000
0000
0000
0200
0000
0000
0000
0000
0000
0000
0000
0000
0000
0000
0000
0000
0000
0000
0000
0000
0000
,
0000
0000
0000
0000
0300
0000
0000
1000
0000
0010
0000
0000
0001
0000
0010
0000
0100
0000
1000
0000
0000
0000
0000
0100
0000
0010
0001
0000
0000
0010
0000
0000
,
1000
0100
0000
1000
0000
0002
0000
0000
0000
0000
0003
0000
0000
0000
1000
0100
0000
1000
0000
0010
0000
0100
0000
2000
0000
0000
3001
0000
0010
0000
0200
0000
,
0000
0000
0300
0000
0000
1001
0000
0110
0000
2002
0000
0000
0000
3003
0000
0000
0000
0000
0000
0000
1001
0000
0000
0000
0000
0000
0001
0000
0000
0001
0000
1000
,
0000
0000
0100
0000
0010
0000
1000
0000
0001
0000
0010
0200
0000
0000
0300
0000
0000
1000
0000
0000
0000
0000
0220
0000
0000
0000
0330
0000
0000
0000
0000
0000
,
1000
0000
0100
1000
0000
0020
0000
0000
0030
0001
1000
0000
0000
0001
0000
0100
0000
1000
0000
0001
0000
1000
0000
0010
0000
0100
0000
1000
0001
0000
0020
0000
,
0000
0130
0000
0000
0000
0000
1000
0010
0000
0001
0000
0000
1000
0000
0100
0000
0000
0001
0000
0010
0100
0000
1000
0000
0000
0001
0010
0000
0100
0000
0000
0010
,
1000
0000
0000
0100
0000
0010
0001
0000
0000
0000
1000
0000
0100
0010
0001
0000
0000
1000
0010
0100
0000
0100
0000
0001
0000
0000
1000
0000
0100
0000
0000
0000
,
0010
0000
0000
0001
0000
1000
0000
0000
0110
0000
0000
0000
0000
0000
1111
0000
0000
0000
0111
0000
0000
1110
0000
0000
0000
1111
0000
0000
0111
0000
0000
2222
,
0000
0000
0000
3333
0000
0000
0000
0000
0000
0000
1000
0000
0100
0010
0000
0000
0001
0000
0100
0010
0000
1000
0000
0000
0002
0003
0100
0000
0000
0000
1000
0000
,
0000
0010
0000
0000
0100
0002
0003
0000
0001
0000
0000
0000
0010
0100
0000
2000
3000
1000
0000
0000
0000
0200
0300
0000
0010
1000
0002
0003
0000
0000
0100
0000
,
0010
0000
1000
0000
0000
0010
0000
1000
0000
0100
0000
0000
0001
0000
0000
0000
0020
0030
0000
0000
0100
0000
1000
0000
0100
1000
0001
0010
0000
0001
0000
0000
,
0000
0000
0010
0100
0000
0010
0000
0000
0100
0000
0001
0000
2000
0000
0000
0000
3000
0010
0100
0000
0000
0001
0000
0020
0030
0000
0200
0300
0000
0001
0000
1000
,
0000
0000
0220
0000
0000
0332
0000
0000
2003
0000
0000
0000
3020
0000
0000
0000
0000
0000
0000
2030
0000
0000
0000
3002
0000
0000
0000
0000
0203
0000
0000
0000
,
0000
0000
0000
0000
0310
0000
0001
2000
0000
0000
0000
0000
0000
3000
0000
0000
0011
0000
0110
0000
1100
0000
0000
0000
0110
0000
0110
0000
0000
0000
0110
0000
,
0001
0000
0000
0000
0001
0000
0010
0000
1100
0000
0110
0000
0000
0011
0000
0000
0110
0000
0000
1000
0000
0001
0000
0220
0000
0000
1000
0000
0000
0001
1000
0330
,
0000
0000
0000
0000
1000
0000
0100
0010
0000
0001
0000
0010
0000
0000
0100
0000
2000
3000
0100
0000
0000
0000
0010
0000
0001
0000
0000
0010
0000
0200
0300
0000
,
1000
0000
0000
0100
0000
0010
0000
0002
0003
0000
0010
0000
0000
0100
0000
2000
3000
0000
0100
0000
0010
0000
0001
0000
0000
0000
2000
0000
0000
0000
0000
0001
,
0020
0030
0000
0000
0100
0000
0010
0000
0000
0001
0000
0010
0000
0000
0100
0000
0000
0011
0000
3110
0000
0000
0000
0000
0000
0000
0000
0000
0000
1111
0000
0000
,
0000
0220
0000
0000
0330
0000
0000
0000
0000
0000
0000
0000
0000
0000
0000
0000
0000
0000
1000
0001
0000
0000
0100
0000
0000
0010
0000
2000
3002
0003
0000
0000
,
0000
0200
0300
0000
0000
0000
0010
2000
0000
0000
0000
0000
0000
0000
0000
0000
3000
0011
0000
0220
0330
0000
0000
1100
0000
0000
0110
0000
0000
0011
0000
0000
,
0110
0000
0000
0000
1100
0000
0000
0000
0220
0330
0000
0000
0000
2222
0000
0000
0000
0000
3333
0000
0000
0000
1111
0000
0000
1111
0000
0000
0000
0000
1000
0000
,
0100
0020
0030
0000
0001
0000
0010
0000
0000
0000
0000
0001
0000
0010
0000
0001
0000
0010
0000
0200
0300
1000
0200
0300
0000
0010
0000
0100
0000
1000
0000
0100
,
0000
0010
0000
0002
0003
0000
0010
0000
0000
0100
0000
0020
0030
0002
0003
0000
0010
0000
0200
0300
0000
2002
0000
0010
0000
0100
0000
0000
0010
0000
0000
0000
,
0200
0300
0000
0010
0000
0000
0000
0010
0000
0100
0000
0000
0200
0300
0010
0000
0200
0300
0000
0000
0010
3003
0000
0000
0000
1000
0000
0000
0100
0010
0000
0000
,
1000
0000
0000
0100
0000
0001
0000
0000
0000
0100
0000
0020
0030
0000
1000
0000
0000
0001
0000
0000
0200
0300
0000
0010
0000
2000
0000
0000
0000
0000
0000
0001
,
0000
0010
0000
0000
0010
0000
0001
0000
0010
0000
0200
0300
0010
0000
3000
0000
0000
0000
0000
0000
0000
0000
2202
0000
0000
0000
0000
0000
0000
3303
0000
0000
,
0000
0000
0100
0000
0010
0000
0002
0003
0000
1000
0000
0020
0030
0000
0200
0300
0000
1000
0000
0000
0000
1011
0000
0000
0000
0000
0001
0000
0000
0100
0000
0000
,
0000
0020
0000
0000
0000
0000
1030
0000
0000
0001
1000
0000
0220
0000
0000
0000
0001
1000
0000
0000
0000
0330
0000
0000
2000
3000
0000
0100
0000
0000
0010
0001
,
0000
0000
0010
0000
0200
0300
0000
1000
0000
0100
0000
0010
0000
0000
0000
0001
0000
0010
0000
0100
0000
1000
0000
0100
0000
0010
0000
0001
0000
0010
0000
0100
,
0000
1000
0000
0100
0000
0010
0000
0001
0000
0010
0000
0100
0000
1000
0000
0100
0000
0010
0000
0001
0000
0010
0000
0100
0000
1000
0000
0100
0000
0010
0000
0001
,
0000
0000
0000
1111
0000
0000
0000
1000
0000
0100
0000
0010
0000
0001
0000
0010
0000
0100
0000
1000
0000
0100
0000
0010
0000
0001
0000
0010
0000
1100
0000
0000
,
0000
0011
0000
0000
0000
0220
0000
0000
0000
1000
0000
0001
0330
1000
0000
0000
0000
0000
0000
1111
0000
0000
0000
1000
0000
0100
0000
0010
0000
0001
0000
0010
,
0000
0100
0000
1000
0000
0100
0000
0010
0000
0001
0000
0010
0000
0100
0000
1000
0000
0100
0000
0010
0000
0000
0000
0001
0000
0010
0000
0100
0000
1000
0000
0100
,
0000
0010
0000
2000
0000
0000
0000
0002
0000
0000
0000
0220
0000
0000
0000
0000
0000
3003
0000
0000
0000
0330
0000
0000
0000
0000
0000
0000
0000
0000
1000
0000
,
0100
0000
1000
0000
0000
0000
0000
0000
0000
0000
0001
0000
0010
0000
0001
0000
0000
0000
0000
0000
0000
0000
1000
0001
0100
0000
0000
0010
0000
0000
1000
0000
,
0000
0200
0300
0001
0000
0000
0020
0030
0000
1000
0000
0000
0000
0010
0000
0000
0100
0000
0001
0000
0000
1000
0000
0000
0010
0200
0300
0000
0000
0001
0000
0000
,
0100
0000
0000
0020
0030
2000
3000
0000
0000
0100
0000
0000
0000
0000
0001
0000
2000
3000
0000
0000
0220
0000
0000
0000
0000
0330
0000
0000
0000
0000
0000
1000
,
0000
0100
0000
0000
0001
0000
0000
0010
0000
0000
1000
0000
0010
0000
0000
0100
0000
0000
0000
0000
0000
0000
0000
0000
0000
1111
0000
0000
2222
0000
0000
0000
,
0000
3333
0000
0000
0000
0000
0000
0000
;
